#TITLE:She Is My Sin;
#SUBTITLE:;
#ARTIST:Night Wish;
#TITLETRANSLIT:She Is My Sin;
#SUBTITLETRANSLIT:;
#ARTISTTRANSLIT:Night Wish;
#CREDIT:;
#BANNER:She Is My Sin-bn.png;
#BACKGROUND:She Is My Sin-bg.png;
#LYRICSPATH:;
#CDTITLE:pm4cd.png;
#MUSIC:She Is My Sin.mp3;
#OFFSET:0.060;
#SAMPLESTART:157.528;
#SAMPLELENGTH:20.000;
#SELECTABLE:YES;
#BPMS:0.000=153.030;
#STOPS:;
#BGCHANGES:;
// cache tags:
#FIRSTBEAT:1.250;
#LASTBEAT:713.750;
#SONGFILENAME:Songs/Music V.I.P ^_^/She Is My Sin/She Is My Sin.sm;
#HASMUSIC:1;
#HASBANNER:1;
#MUSICLENGTH:286.283;
// end cache tags

//---------------dance-single - ----------------
#NOTES:
     dance-single:
     :
     Hard:
     12:
     1.000,1.000,1.000,0.045,1.000,1480.000,569.000,13.000,0.000,77.000:
0000
0000
0000
0000
0000
1001
0000
1001
0000
1001
0000
0010
0000
0100
0000
0010
,
0000
0001
0000
0010
0000
0100
0000
1000
0000
0100
0000
0010
0000
0001
0000
1010
,
0000
0000
0000
0101
0000
0101
0000
0101
0000
0101
0000
1000
0000
0010
0000
0100
,
0000
1000
0000
0100
0000
0010
0000
0001
0000
0010
0000
0100
0000
0010
0000
1001
,
0000
0100
0000
1001
0000
1001
0000
1001
0000
1001
0000
0100
0000
0010
0000
0001
,
0000
1010
0000
0000
0000
1010
0000
0000
0000
0101
0000
0000
0000
0101
0000
0000
,
0000
0011
0000
0000
0000
1100
0000
1100
0000
1100
0000
1100
0000
0011
0000
0011
,
0000
0011
0000
0011
0000
1101
0000
1101
0000
1101
0000
1101
0000
0100
0010
1000
,
0100
1001
0000
0000
0000
0101
0000
0010
0000
1001
0000
0010
0000
0101
0000
1000
,
0000
0110
0000
0001
0000
1010
0000
0100
0010
0001
0010
0100
0000
1000
0010
0000
,
0100
0001
0000
0010
0100
1001
0000
0001
0000
1010
0000
0100
0000
0011
0000
1000
,
0000
0101
0000
0010
0000
0100
1000
0100
0010
0001
0000
0100
0010
0001
0010
0100
,
0000
1000
0100
0010
0001
1010
0000
0100
0000
0101
0000
0010
0000
1010
0000
0000
,
0000
1001
0000
0000
0000
1010
0000
0000
0000
0011
0000
0000
0000
1001
0000
0000
,
0000
0101
0000
0000
0000
1001
0000
1001
0000
1001
0000
1001
0000
1101
0000
1101
,
0000
1101
0000
1101
0000
0010
0100
1000
0100
0010
0001
0010
0100
1000
0100
0010
,
0001
1010
0000
0000
0000
1011
0000
0100
0010
0101
0000
0010
0000
1001
0000
0010
,
0100
1001
0000
0010
0000
1001
0000
0010
0100
1010
0000
0100
0000
0011
0000
0001
,
0010
0101
0000
0010
0000
1001
0000
0010
0100
1010
0000
0100
0000
0011
0000
1000
,
0100
0011
0000
0100
0000
1010
0000
0001
0010
0101
0000
1000
0000
0101
0000
1000
,
0100
1010
0000
0100
0000
1011
0000
0100
0000
0010
0000
0100
0010
0001
0000
0000
,
0000
1010
0000
0000
0000
0101
0000
0000
0000
1001
0000
0000
0000
1100
0000
0000
,
0000
0011
0000
0000
0000
0110
0000
0110
0000
0110
0000
0110
0000
1001
0000
1001
,
0000
1001
0000
1001
0000
1000
0100
0010
0001
0010
0100
1000
0100
0010
0001
0100
,
0010
0001
0010
0100
1000
0101
0000
0000
0100
1000
0000
0100
0000
1100
0000
0000
,
0100
1000
0000
0100
0000
1100
0000
0000
0100
1000
0000
0100
0000
1100
0000
0000
,
0001
0010
0000
0001
0000
0011
0000
0000
0001
0010
0000
0001
0000
0011
0000
0000
,
0001
0010
0000
0001
0000
0011
0000
0000
1000
0010
0000
1000
0000
1010
0000
0000
,
1000
0010
0000
1000
0000
1010
0000
0010
0000
0101
0000
0001
0000
1100
0000
0010
,
0000
0101
0000
1000
0000
1100
0000
0100
0000
0101
0000
0001
0000
1001
0000
0100
,
0000
0110
0000
1010
0000
0101
0000
0000
0010
0001
0000
0010
0000
0011
0000
0000
,
0010
0001
0000
0010
0000
0011
0000
0000
0010
0001
0000
0010
0000
0011
0000
0000
,
1000
0100
0000
1000
0000
1001
0000
0000
1000
0100
0000
1000
0000
1001
0000
0000
,
1000
0100
0000
1000
0000
1001
0000
0000
0010
0100
0000
0010
0000
0101
0000
0000
,
0010
0100
0000
0010
0000
0101
0000
0100
0000
1100
0000
0001
0000
0110
0000
1000
,
0000
1010
0000
0100
0000
0011
0000
0001
0000
1001
0000
1000
0000
0110
0000
0001
,
0000
0011
0000
1001
0000
0101
0000
0000
0100
0001
0000
0100
0000
0101
0000
0000
,
0100
0001
0000
0100
0000
1010
0000
0000
0010
1000
0000
0010
0000
1010
0000
0000
,
0010
1000
0000
0010
0000
1001
0000
0000
1000
0001
0000
1000
0000
1001
0000
0000
,
1000
0001
0000
1000
0000
1001
0000
0000
0010
0100
0000
0010
0000
0110
0000
0000
,
0010
0100
0000
0010
0000
1001
0000
0100
0000
0011
0000
1000
0000
0101
0000
0010
,
0000
1100
0000
0001
0000
1010
0000
0100
0000
0011
0000
1000
0000
0101
0000
0010
,
0000
1001
0000
0101
0000
1010
0000
0000
1000
0010
0000
1000
0000
1010
0000
0000
,
1000
0010
0000
1000
0000
0101
0000
0000
0001
0100
0000
0001
0000
0101
0000
0000
,
0001
0100
0000
0001
0000
0110
0000
0000
0010
0100
0000
0010
0000
0110
0000
0000
,
0010
0100
0000
0010
0000
1001
0000
0000
1000
0001
0000
1000
0000
1001
0000
0100
,
0010
0001
0000
1010
0000
0101
0000
0010
0000
1000
0000
0100
0010
0001
0000
0000
,
0000
1010
0000
0000
0000
0011
0000
0000
0000
1100
0000
0000
0000
0101
0000
0000
,
0000
1001
0000
0000
0000
2110
0000
0010
0000
0100
0000
0000
0000
0000
0000
0010
,
0000
0100
0010
0000
0000
0010
0000
0010
0000
0100
0000
0000
0000
0000
0000
0010
,
0000
0100
0010
0000
3000
0112
0000
0010
0000
0100
0000
0000
0000
0000
0000
0010
,
0000
0100
0010
0000
0000
0010
0000
0010
0000
0100
0000
0000
0000
0000
0000
0010
,
0000
0100
0010
0000
0003
0201
0000
0001
0000
0010
0000
0000
0000
0000
0000
0001
,
0000
0010
0001
0000
0000
0001
0000
0001
0000
0010
0000
0000
0000
0000
0000
0001
,
0000
0010
0001
0000
0300
1001
0000
1001
0000
0110
0000
1001
0000
1001
0000
1001
,
0000
0110
0000
1001
0000
1001
0000
0000
0000
0000
0000
0200
0000
0000
0000
0000
,
0000
0000
0000
0000
0300
1110
0000
0001
0000
0101
0000
0010
0000
1100
0000
1000
,
0000
1001
0000
0100
0000
0011
0000
1000
0000
1010
0000
0001
0000
1001
0000
0100
,
0000
0011
0000
0010
0000
1011
0000
0100
0000
0011
0000
0001
0000
1010
0000
1000
,
0000
0110
0000
1000
0001
0110
0000
0001
1000
0110
0000
1000
0001
0110
0000
0001
,
1000
0111
0000
1000
0001
1110
0000
0100
0000
0110
0000
0001
0000
1100
0000
0010
,
0000
0101
0000
0010
0000
1001
0000
1000
0000
1100
0000
0100
0000
0011
0000
0001
,
0000
1001
0000
0100
0000
0111
0000
0100
0000
1010
0000
0001
0000
1100
0000
0010
,
0000
0101
0000
0010
0000
1101
0000
0001
0010
0100
1000
0111
0000
1110
0001
0010
,
0100
1000
0100
0010
0001
1110
0000
0001
0000
1010
0000
0100
0000
0011
0000
1000
,
0000
1001
0000
0010
0000
1100
0000
0001
0000
1010
0000
0100
0000
0011
0000
1000
,
0000
0101
0000
0010
0000
1101
0000
1000
0000
1100
0000
0010
0000
0101
0000
0010
,
0000
1001
0000
0001
0000
1100
0000
0001
0100
1010
0000
1000
0010
0101
0000
0001
,
0100
1011
0000
1000
0010
1101
0000
0001
0000
1010
0000
0100
0000
0011
0000
1000
,
0000
0101
0000
0010
0000
1001
0000
0010
0000
0110
0000
0100
0000
1100
0000
0001
,
0000
1010
0000
0100
0000
1011
0000
0001
0000
0011
0000
0010
0000
1010
0000
1000
,
0000
0101
0000
0010
0000
1000
0100
0010
0001
0010
0100
1000
0100
0010
0100
1000
,
0100
1011
0000
0100
0000
1010
0000
0001
0010
1100
0000
0010
0000
0101
0000
0010
,
0100
1001
0000
0100
0000
0011
0000
0001
1000
0110
0000
1000
0000
1001
0000
1000
,
0100
1010
0000
0010
0000
1100
0000
1000
0010
0101
0000
0001
0000
0011
0000
0001
,
0010
0101
0000
1000
0000
1001
0000
1000
0100
0011
0000
0100
0000
0101
0000
1000
,
0010
1100
0000
0001
0000
1110
0000
0001
0000
0010
0000
0010
0001
1100
0000
0000
,
0000
0011
0000
0000
0000
1100
0000
0000
0000
1001
0000
0000
0000
1010
0000
0000
,
0000
0101
0000
0000
0000
0101
0000
0101
0000
0101
0000
0101
0000
1011
0000
1011
,
0000
1011
0000
1011
0000
0100
1000
0100
0010
0001
0010
0100
0010
0001
0010
0100
,
1000
0100
0010
0001
0010
1101
0000
0000
0001
0100
0000
0001
0000
0110
0000
0000
,
0001
0100
0000
0001
0000
1100
0000
0000
1000
0010
0000
1000
0000
1100
0000
0000
,
1000
0010
0000
1000
0000
0101
0000
0000
0100
0010
0000
0100
0000
0110
0000
0000
,
0100
0010
0000
0100
0000
0110
0000
0000
0001
1000
0000
0001
0000
1001
0000
0000
,
0001
1000
0000
0001
0000
1001
0000
0100
0000
0110
0000
1000
0000
0101
0000
0001
,
0000
0110
0000
0001
0000
0011
0000
0100
0000
1010
0000
1000
0000
1100
0000
0010
,
0000
1001
0000
0110
0000
0011
0000
0000
0100
1000
0000
0100
0000
0101
0000
0000
,
0100
1000
0000
0100
0000
0011
0000
0000
0010
0001
0000
0010
0000
0011
0000
0000
,
0010
0001
0000
0010
0000
1100
0000
0000
1000
0010
0000
1000
0000
1100
0000
0000
,
1000
0010
0000
1000
0000
1100
0000
0000
1000
0010
0000
1000
0000
1100
0000
0010
,
0100
1000
0000
0011
0000
1100
0000
0010
0000
0001
0000
0001
0010
0100
0000
0000
,
0000
1001
0000
0000
0000
0110
0000
0000
0000
0011
0000
0000
0000
1100
0000
0000
,
0000
0101
0000
0000
0000
1102
0000
1000
0000
0100
0000
0000
0000
0000
0000
0100
,
0000
1000
0100
0000
0000
0100
0000
0100
0000
1000
0000
0000
0000
0000
0000
0100
,
0000
1000
0100
0000
0003
1021
0000
0001
0000
1000
0000
0000
0000
0000
0000
1000
,
0000
0001
1000
0000
0000
1000
0000
1000
0000
0001
0000
0000
0000
0000
0000
1000
,
0000
0001
1000
0000
0030
2110
0000
0100
0000
0001
0000
0000
0000
0000
0000
0001
,
0000
0100
0001
0000
0000
0001
0000
0001
0000
0100
0000
0000
0000
0000
0000
0001
,
0000
0100
0001
0000
3000
0101
0000
0101
0000
0110
0000
1010
0000
1010
0000
1010
,
0000
0110
0000
0101
0000
0101
0000
0001
0010
0100
0010
0100
1000
0101
0010
0100
,
0010
0001
0010
0100
0010
1101
0000
0001
0000
1010
0000
0100
0000
0011
0000
1000
,
0000
0101
0000
0010
0000
1001
0000
0100
0000
0011
0000
1000
0000
1100
0000
0010
,
0000
0110
0000
0001
0000
1110
0000
0100
0000
0011
0000
0001
0000
1010
0000
0100
,
0000
0011
0000
0100
0000
1001
0000
1000
0100
0011
0000
0001
0010
1100
0000
1000
,
0100
1011
0000
0001
0010
1101
0000
0001
0000
1010
0000
0100
0000
0011
0000
0001
,
0000
1010
0000
0010
0000
0101
0000
1000
0000
0110
0000
0001
0000
0011
0000
0100
,
0000
1010
0000
1000
0000
0111
0000
0001
0000
1100
0000
0010
0000
0101
0000
0010
,
0000
1001
0000
0100
0000
1101
0000
1000
0000
1000
0100
0010
0100
1011
0000
0010
,
0001
0010
0100
1000
0100
1011
0000
1000
0000
1100
0000
0010
0000
0101
0000
0001
,
0000
1010
0000
0100
0000
0011
0000
1000
0000
1001
0000
0010
0000
1100
0000
0001
,
0000
1010
0000
0100
0000
1101
0000
0010
0000
1100
0000
1000
0000
1001
0000
0100
,
0000
0011
0000
0001
0000
1010
0000
0100
0010
1001
0000
0010
0100
1001
0000
0100
,
0010
1101
0000
0010
0100
1011
0000
1000
0000
0101
0000
0001
0000
0011
0000
0100
,
0000
1010
0000
0100
0000
1001
0000
0100
0000
0011
0000
0100
0000
1001
0000
0100
,
0000
0011
0000
0001
0000
1110
0000
1000
0000
0101
0000
0010
0000
1001
0000
0100
,
0000
0011
0000
1000
0000
0001
0010
0100
1000
0100
0010
0100
0010
0001
0010
0100
,
1000
0111
0000
0000
0000
2101
0000
0101
0000
0000
0000
0111
0000
0000
0000
0011
,
0000
0110
0000
0001
0000
0010
0000
0100
0000
0110
0000
0001
0000
0010
0000
0100
,
0000
0111
0000
0100
0000
0101
0010
0001
0000
0010
0000
0111
0000
0001
0000
0010
,
0000
0101
3000
0001
0010
1100
0000
1000
0100
0011
0000
0001
0010
1100
0010
0001
,
0010
1100
0000
0010
0000
0112
0000
1110
0000
0000
0000
1110
0000
0000
0000
1100
,
0000
0110
0003
0001
0010
0001
0010
0001
0010
0001
0010
0100
1000
0100
1000
0100
,
1000
0100
0010
0001
0010
1100
0000
0101
1000
0000
0000
1010
0001
1110
0000
0000
,
0111
0000
0000
1101
0000
1101
0000
0010
0100
0010
0100
0010
0100
0010
0100
0010
,
0100
1000
0100
1000
0100
1001
0000
0001
0100
1010
0000
0001
0100
1010
0000
0001
,
0100
1010
0000
0001
0100
1010
0000
1000
0010
0101
0000
1000
0010
0101
0000
1000
,
0010
0101
0000
1000
0010
0101
0000
0010
0001
1010
0000
0010
0001
1010
0000
0010
,
0001
1010
0000
0100
0000
1000
0100
0010
0100
0010
0001
0010
0100
0010
0001
0010
,
0100
0011
0000
0100
0000
1001
0000
1000
0100
0011
0000
1000
0100
0011
0000
1000
,
0100
0011
0000
1000
0100
0011
0000
0001
0010
1100
0000
0001
0010
1100
0000
0001
,
0010
1100
0000
0001
0010
1100
0000
0100
1000
0011
0000
0100
1000
0011
0000
0100
,
1000
0011
0000
0100
0000
0010
0001
0010
0100
1000
0100
0010
0001
0010
0100
0010
,
0100
1001
0000
0001
0000
1010
0000
0100
0000
0011
0000
1000
0000
0101
0000
0010
,
0000
1001
0000
0100
0000
1010
0000
0100
0000
1001
0000
0010
0000
0101
0000
1000
,
0000
0110
0000
0001
0000
1010
0000
0100
0000
1001
0000
0010
0000
0101
0000
0010
,
0000
1001
0000
0100
0000
1010
0000
0000
0001
0000
0000
1000
0000
0120
0000
0000
,
0000
0001
0000
0000
0030
1001
0000
0100
0000
1010
0000
0100
0000
0011
0000
1000
,
0000
0110
0000
0001
0000
1010
0000
0100
0000
1001
0000
0010
0000
0101
0000
0010
,
0000
1001
0000
0100
0000
0011
0000
0100
0000
1010
0000
0100
0000
1001
0000
0010
,
0000
1100
0000
0001
0000
1010
0000
0100
0000
1010
0000
1010
0000
0101
0000
0101
,
0000
1100
0000
0011
0000
1001
0000
1000
0100
0011
0000
1000
0100
0011
0000
1000
,
0100
0011
0000
1000
0100
0011
0000
0001
0010
1100
0000
0001
0010
1100
0000
0001
,
0010
1100
0000
0001
0010
1100
0000
0010
0100
1001
0000
0101
0000
0010
0000
0010
,
0100
1001
0000
0100
0010
0101
0000
1000
0100
1010
0000
1000
0100
1010
0000
1000
,
0100
1010
0000
1000
0100
1010
0000
1000
0100
0011
0000
1000
0100
0011
0000
1000
,
0100
0011
0000
1000
0100
0011
0000
0001
0010
1100
0000
0001
0010
1100
0000
0001
,
0010
1100
0000
0001
0010
1100
0000
0100
0010
1001
0000
0011
0100
1000
0000
0100
,
0010
0101
0000
0010
0000
0100
1000
0100
0010
0001
0010
0100
1000
0001
0010
0100
,
1000
0011
0000
0000
0000
0100
0010
0101
0000
0000
0000
1011
0000
0000
0000
0010
,
0000
0101
0000
0000
0000
0000
0000
0101
0000
0010
0000
1010
0000
0100
0000
1010
,
0000
1010
0000
1001
0000
0222
0000
0000
0000
0000
0000
0000
0000
0000
0000
0000
,
0000
0000
0000
0000
,
0000
0000
0000
0000
,
0000
0000
0000
0000
,
0000
0000
0000
0333
0000
0000
0000
0000
0000
0000
0000
0000
0000
0000
0000
0000
,
0000
0000
0000
0000
,
0000
0000
0000
0000
,
0000
0000
0000
0000
0000
0000
0000
0000
0000
0110
0000
0000
0000
0110
0000
0000
,
0000
0110
0000
0000
0000
1010
0000
0100
0000
0101
0000
0010
0000
1010
0000
0100
,
0000
0101
0000
0010
0000
1001
0000
0100
0000
1001
0000
0010
0000
1001
0000
0100
,
0000
1001
0000
0010
0000
1010
0000
0100
0000
1010
0000
0001
0000
1010
0000
0100
,
0000
1010
0000
0001
0000
0101
0000
0010
0000
0101
0000
1000
0000
0101
0000
0010
,
0000
0101
0000
1000
0000
0110
0000
0001
0000
0110
0000
1000
0000
0110
0000
0001
,
0000
0110
0000
1000
0000
0101
0000
0010
0000
1010
0000
0100
0000
0101
0000
0010
,
0000
1010
0000
0100
0000
1001
0000
0100
0000
1001
0000
0010
0000
1001
0000
0100
,
0000
1001
0000
0010
0000
1100
0000
0001
0000
1100
0000
0010
0000
1100
0000
0001
,
0000
1100
0000
0010
0000
0011
0000
1000
0000
0011
0000
0100
0000
0011
0000
1000
,
0000
0011
0000
0100
0000
1010
0000
0100
0000
1010
0000
0001
0000
1010
0000
0100
,
0000
1010
0000
0001
0000
0101
0000
0010
0000
0101
0000
1000
0000
0101
0000
0010
,
0000
0101
0000
1000
0000
0110
0000
0001
0000
0110
0000
1000
0000
0110
0000
0001
,
0000
0110
0000
1001
0000
1010
0000
0100
0000
0101
0000
0010
0000
1010
0000
0100
,
0000
0101
0000
0010
0000
1001
0000
0100
0000
1001
0000
0010
0000
1001
0000
0100
,
0000
1001
0000
0010
0000
1100
0000
0001
0000
1100
0000
0010
0000
1100
0000
0001
,
0000
1100
0000
0010
0000
0101
0000
0010
0000
0101
0000
0010
0000
0101
0000
0010
,
0000
0101
0000
0010
0000
1101
0000
0001
0010
1100
0000
0001
0010
1100
0000
0001
,
0010
1100
0000
0001
0010
1100
0000
1000
0100
0011
0000
1000
0100
0011
0000
1000
,
0100
0011
0000
1000
0100
0011
0000
1010
0000
1010
0000
0001
0000
0100
0000
0010
,
0000
1101
0000
0000
0000
1011
0000
0000
0000
1110
0000
0000
0000
0111
0000
0000
,
0000
1011
0000
0000
0000
1101
0000
1011
0000
0000
0000
0000
0000
0000
0000
0000
;

//---------------dance-single - ----------------
#NOTES:
     dance-single:
     :
     Medium:
     1:
     0.000,0.000,0.000,0.000,0.000,0.000,0.000,0.000,0.000,0.000:
0000
0000
0000
0000
;
